<?xml version="1.0" standalone="no"?>
<!DOCTYPE svg PUBLIC "-//W3C//DTD SVG 1.1//EN" "http://www.w3.org/Graphics/SVG/1.1/DTD/svg11.dtd" >
<svg xmlns="http://www.w3.org/2000/svg">
<metadata>Generated by IcoMoon</metadata>
<defs>
<font id="icomoon" horiz-adv-x="1024">
<font-face units-per-em="1024" ascent="960" descent="-64" />
<missing-glyph horiz-adv-x="1024" />
<glyph unicode="&#x20;" horiz-adv-x="512" d="" />
<glyph unicode="&#xe900;" glyph-name="checkbox-blank-outline" d="M896.38 960c70.483 0 127.62-57.249 127.62-127.62v-768.76c0-70.483-57.249-127.62-127.62-127.62h-768.76c-70.483 0-127.62 57.249-127.62 127.62v768.76c0 70.483 57.249 127.62 127.62 127.62h768.76zM896.38 896h-768.76c-35.072 0-63.62-28.531-63.62-63.62v-768.76c0-35.072 28.531-63.62 63.62-63.62h768.76c35.072 0 63.62 28.531 63.62 63.62v768.76c0 35.072-28.531 63.62-63.62 63.62z" />
<glyph unicode="&#xe901;" glyph-name="checkbox-marked" d="M896.38 960c70.483 0 127.62-57.249 127.62-127.62v-768.76c0-70.483-57.249-127.62-127.62-127.62h-768.76c-70.483 0-127.62 57.249-127.62 127.62v768.76c0 70.483 57.249 127.62 127.62 127.62h768.76zM800 672l-384-384-192 192-64-64 256-256 448 448-64 64z" />
<glyph unicode="&#xe902;" glyph-name="minus-box" d="M896.38 960c70.483 0 127.62-57.249 127.62-127.62v-768.76c0-70.483-57.249-127.62-127.62-127.62h-768.76c-70.483 0-127.62 57.249-127.62 127.62v768.76c0 70.483 57.249 127.62 127.62 127.62h768.76zM832 512h-640v-128h640v128z" />
<glyph unicode="&#xe903;" glyph-name="settings" d="M495.189 874.795c-10.88-2.773-20.565-8.149-174.336-97.024-166.315-96.128-166.656-96.341-177.365-116.437-10.795-20.267-10.368-11.733-10.368-212.48s-0.427-192.213 10.368-212.48c10.709-20.053 11.349-20.48 173.952-114.517 83.072-48.043 156.8-90.112 163.84-93.525 12.501-6.016 13.269-6.144 33.28-6.144 18.859 0 21.291 0.384 30.72 4.779 5.632 2.645 78.933 44.501 162.901 93.013 163.968 94.763 166.955 96.683 177.28 116.053 10.795 20.309 10.496 13.739 10.496 212.821 0 198.656 0.299 192.555-10.325 212.48-10.709 20.053-11.307 20.48-173.952 114.517-83.072 48.043-156.715 90.069-163.627 93.355-11.477 5.504-14.123 6.101-29.867 6.528-1.83 0.091-3.974 0.142-6.13 0.142-5.947 0-11.802-0.393-17.54-1.154l0.673 0.073zM663.893 705.237l145.92-84.48v-343.808l-145.92-84.565c-80.256-46.507-147.456-84.565-149.333-84.565s-69.077 38.016-149.333 84.523l-145.92 84.565v343.893l146.773 85.077c80.725 46.763 147.925 84.779 149.333 84.437s68.224-38.613 148.48-85.077zM485.461 616.192c-54.364-9.061-99.374-42.638-123.924-88.76l-0.45-0.925c-12.106-22.792-19.214-49.834-19.214-78.536 0-87.567 66.165-159.681 151.228-169.076l0.765-0.069c106.453-12.373 199.68 80.853 187.307 187.307-11.307 97.451-99.456 165.035-195.712 150.059zM532.992 530.773c5.376-1.365 13.781-4.565 18.688-7.040 11.477-5.803 30.251-24.576 36.053-36.053 6.009-11.539 9.534-25.198 9.534-39.68s-3.525-28.141-9.763-40.166l0.229 0.486c-5.803-11.477-24.576-30.251-36.053-36.053-11.539-6.009-25.198-9.534-39.68-9.534s-28.141 3.525-40.166 9.763l0.486-0.229c-11.477 5.803-30.251 24.576-36.053 36.053-6.009 11.539-9.534 25.198-9.534 39.68s3.525 28.141 9.763 40.166l-0.229-0.486c5.845 11.52 24.576 30.251 36.096 36.053 11.62 5.985 25.358 9.494 39.916 9.494 7.351 0 14.492-0.895 21.322-2.581l-0.609 0.127z" />
<glyph unicode="&#xe904;" glyph-name="attachment-circle" d="M480.419 958.999c-36.399-3.561-47.197-4.98-65.699-8.611-207.546-40.774-367.732-202.356-405.993-409.553-6.144-33.35-7.703-52.108-7.703-92.835s1.559-59.485 7.703-92.835c36.003-194.979 182.039-352.256 373.527-402.269 139.45-36.422 292.259-11.427 410.298 67.119 120.948 80.477 199.727 201.030 223.907 342.644 21.504 125.836-6.097 259.002-75.59 364.684-83.34 126.767-215.040 209.222-364.87 228.468-19.665 2.513-81.385 4.585-95.581 3.188zM571.741 909.801c81.478-11.148 154.647-41.030 220.16-89.926 28.276-21.108 70.865-63.697 91.974-91.974 50.153-67.212 79.919-141.591 90.857-227.002 2.886-22.481 2.909-84.131 0.047-105.798-14.708-111.569-61.161-205.545-138.775-280.832-74.682-72.448-163.235-114.595-271.104-129.024-21.574-2.886-83.223-2.863-105.798 0.023-85.411 10.938-159.791 40.704-227.002 90.857-27.369 20.433-70.772 63.651-90.95 90.577-50.618 67.537-80.896 142.499-91.881 227.537-2.839 22.086-2.816 87.343 0.047 108.381 11.729 86.156 41.402 159.395 91.834 226.676 19.503 25.996 63.558 70.051 89.553 89.553 42.379 32.399 91.902 58.152 145.522 74.512l3.307 0.868c31.232 9.402 56.343 13.987 102.609 18.665 13.289 1.35 71.913-0.675 89.6-3.095zM561.967 674.118c-8.817-2.328-16.476-5.294-23.702-8.988l0.662 0.307c-11.404-5.865-20.55-14.476-111.127-104.657-54.272-54.063-102.004-102.889-106.031-108.521-16.588-22.691-26.542-51.145-26.542-81.924 0-19.215 3.879-37.523 10.897-54.186l-0.344 0.919c34.467-83.084 137.053-111.965 210.479-59.299 5.632 4.049 53.015 50.223 105.286 102.633 84.177 84.41 95.162 96.023 96.186 101.748 2.7 14.825-7.889 26.81-23.715 26.81h-8.611l-97.373-96.954c-88.227-87.878-98.513-97.559-109.498-103.215-38.121-19.689-79.197-13.545-108.94 16.244-29.556 29.603-36.189 69.469-17.827 107.124 7.005 14.406 7.773 15.22 103.703 111.197 109.009 109.103 105.425 106.147 129.071 106.31 16.198 0.116 28.253-4.655 39.052-15.453 10.519-10.519 15.453-22.877 15.383-38.423-0.116-22.947 2.49-19.759-103.633-125.836-91.043-90.996-94.767-94.464-100.887-94.464-9.007 0-14.615 5.632-14.615 14.685 0 6.865 0.791 7.703 86.039 93.137 92.742 92.975 91.555 91.532 87.761 105.216-2.047 7.716-7.997 13.674-15.556 15.697l-0.153 0.035c-13.731 3.793-12.148 5.12-106.543-89.041-96.768-96.535-96.605-96.349-98.746-119.133-1.327-14.196 3.468-31.023 12.218-42.845 12.916-17.501 37.353-27.532 58.252-23.948 21.551 3.7 19.782 2.188 125.417 107.799 107.776 107.729 107.217 107.055 114.153 134.167 2.053 7.409 3.232 15.918 3.232 24.701 0 8.752-1.171 17.23-3.365 25.287l0.156-0.673c-4.887 19.084-12.521 32.419-26.694 46.545-24.879 24.832-58.973 34.607-94.045 26.996z" />
<glyph unicode="&#xe905;" glyph-name="attachment" d="M679.131 926.647c-36.279-4.096-72.411-18.359-104.155-41.033-10.24-7.387-366.153-361.179-398.848-396.581-29.55-31.963-47.982-60.562-61.952-96.11-12.822-31.722-20.261-68.511-20.261-107.037 0-114.251 65.423-213.222 160.85-261.493l1.674-0.768c57.49-28.818 125.806-37.449 190.391-23.918 53.473 11.894 99.924 36.761 137.515 71.152l-0.226-0.204c9.582 8.704 100.937 99.474 202.971 201.801 151.698 151.991 186.295 187.392 189.294 193.902 2.499 5.93 3.951 12.824 3.951 20.057 0 7.027-1.371 13.734-3.859 19.867l0.127-0.354c-5.023 10.482-13.057 18.845-22.975 24.145l-0.285 0.139c-6.729 3.657-9.874 4.242-21.358 4.242-11.045 0-14.775-0.658-20.626-3.73-4.974-2.56-65.755-62.171-202.094-198.217-107.154-107.008-199.168-197.705-204.434-201.655-32.161-24.7-72.945-39.637-117.213-39.79h-0.035c-1.61-0.055-3.502-0.087-5.402-0.087-19.923 0-39.037 3.462-56.774 9.816l1.175-0.367c-29.446 9.206-54.665 24.67-75.133 44.925l0.016-0.016c-36.955 35.585-59.908 85.486-59.908 140.748 0 21.183 3.373 41.578 9.61 60.678l-0.39-1.381c5.193 16.75 18.725 43.227 29.403 57.563 8.485 11.483 370.322 375.296 394.167 396.434 37.522 33.134 84.699 39.863 128.512 18.505 12.8-6.29 17.262-9.582 29.403-21.797 11.557-11.557 15.653-16.969 20.992-27.867 8.777-17.92 11.922-31.744 11.922-52.297 0-27.941-8.119-50.176-26.697-72.923-15.067-18.432-385.024-384.878-391.168-387.438-19.968-8.338-43.813 8.338-43.813 30.574 0 14.263-1.902 12.142 184.101 197.705 193.829 193.39 183.808 182.345 184.101 202.533 0.021 0.528 0.033 1.147 0.033 1.769 0 18.905-10.967 35.249-26.886 43.016l-0.283 0.125c-5.192 2.88-11.386 4.576-17.976 4.576-1.32 0-2.624-0.068-3.909-0.201l0.161 0.013c-0.971 0.091-2.099 0.143-3.24 0.143-6.6 0-12.796-1.735-18.155-4.773l0.183 0.095c-6.875-3.511-43.154-38.912-182.857-178.176-95.817-95.598-178.395-178.907-183.515-185.271-17.943-21.579-28.832-49.577-28.832-80.119 0-0.659 0.005-1.317 0.015-1.974l-0.001 0.099c0-36.133 11.922-65.17 37.303-90.917 23.507-23.852 56.167-38.628 92.278-38.628 26.719 0 51.548 8.089 72.172 21.953l-0.464-0.294c15.287 10.313 400.75 394.606 413.696 412.379 17.554 24.137 28.965 48.494 36.133 76.946 3.145 12.727 4.242 21.797 4.974 41.106 0.241 3.648 0.378 7.91 0.378 12.203 0 28.159-5.898 54.941-16.526 79.177l0.496-1.268c-20.699 51.931-68.315 97.207-122.661 116.59-22.239 8-47.901 12.625-74.643 12.625-7.197 0-14.316-0.335-21.343-0.99l0.9 0.068z" />
<glyph unicode="&#xe906;" glyph-name="check-circle" d="M482.962 934.327c-202.948-11.774-371.594-146.43-433.395-330.177l-1-3.428c-15.246-45.289-24.044-97.444-24.044-151.653 0-46.242 6.402-90.988 18.367-133.401l-0.833 3.454c18.906-67.136 49.492-125.545 89.769-175.859l-0.754 0.974c16.677-21.138 56.466-60.855 77.458-77.385 186.88-147.529 450.341-140.507 626.469 16.677 88.357 78.775 142.702 180.297 161.134 300.837 4.023 26.258 4.096 100.059 0.073 125.659-4.096 26.112-5.925 31.086-15.287 41.399-8.877 9.888-21.701 16.079-35.97 16.079-23.186 0-42.555-16.347-47.21-38.144l-0.057-0.316c-1.463-7.168-1.243-13.166 1.097-29.257 1.846-15.228 2.899-32.859 2.899-50.737 0-18.102-1.080-35.952-3.178-53.488l0.206 2.118c-13.385-87.259-54.491-166.034-119.881-229.669-58.548-58.153-136.045-97.295-222.418-107.353l-1.765-0.167c-25.015-2.926-83.822-1.097-107.52 3.291-40.001 7.013-75.791 19.228-108.797 36.109l2.155-1.001c-119.636 59.534-203.234 175.716-215.949 312.466l-0.115 1.536c-0.77 10.268-1.209 22.24-1.209 34.315 0 21.941 1.449 43.544 4.258 64.717l-0.269-2.483c13.922 85.508 54.092 159.849 111.835 216.285l0.073 0.071c29.221 29.293 63.267 53.755 100.848 72.096l2.211 0.974c99.767 49.079 220.599 52.443 319.854 9.070 35.035-15.36 39.058-16.896 46.738-17.993 17.993-2.414 38.254 9.070 47.177 26.917 3.492 6.336 5.547 13.887 5.547 21.918 0 8.139-2.11 15.785-5.813 22.421l0.12-0.234c-6.29 12.654-12.654 17.627-35.767 28.087-60.885 29.133-132.342 46.15-207.773 46.15-10.302 0-20.53-0.317-30.674-0.943l1.391 0.069zM916.48 827.026c-2.341-0.731-6.949-2.706-10.24-4.315-3.291-1.682-108.91-105.838-234.642-231.497l-228.718-228.425-53.833 53.614c-59.977 59.758-63.342 62.245-82.798 62.318-0.676 0.035-1.468 0.055-2.265 0.055-18.637 0-34.726-10.908-42.231-26.689l-0.121-0.283c-3.019-5.503-4.795-12.059-4.795-19.030 0-0.639 0.015-1.274 0.044-1.906l-0.003 0.089c0-20.553 0.439-21.138 84.846-105.179 67.803-67.584 76.434-75.557 83.968-78.117 12.434-4.096 27.355-3.584 37.669 1.317 6.949 3.365 55.954 51.566 259.73 255.561 245.76 246.126 251.173 251.685 253.879 260.754 1.587 4.286 2.506 9.237 2.506 14.402 0 5.089-0.891 9.969-2.526 14.494l0.094-0.297c-6.127 19.993-24.33 34.316-45.91 34.523h-0.024c-5.705-0.073-12.288-0.731-14.629-1.39z" />
<glyph unicode="&#xe907;" glyph-name="chevron" d="M674.048 923.477c-13.995-1.365-27.307-6.315-40.277-15.019-6.485-4.267-399.445-396.629-408.491-407.808-11.636-13.903-18.703-31.977-18.703-51.701 0-0.544 0.005-1.087 0.016-1.628l-0.001 0.081c0-22.101 7.083-39.851 23.125-58.027 17.152-19.541 398.592-399.275 405.419-403.797 13.435-9.326 30.088-14.899 48.042-14.899 46.893 0 84.907 38.014 84.907 84.907 0 11.426-2.257 22.325-6.349 32.275l0.206-0.565c-6.485 16.128-5.717 15.275-125.867 136.021l-223.573 224.683 168.448 168.704c114.176 114.347 169.899 170.837 172.885 175.445 4.949 7.595 9.643 18.517 12.032 27.904 0.937 5.809 1.473 12.506 1.473 19.328s-0.535 13.519-1.567 20.051l0.094-0.723c-4.359 16.848-13.143 31.25-25.038 42.364l-0.050 0.046c-14.867 14.176-35.043 22.9-57.256 22.9-3.338 0-6.631-0.197-9.866-0.58l0.392 0.038z" />
<glyph unicode="&#xe908;" glyph-name="cross" d="M56.32 956.782c-32.632-9.692-56.026-39.414-56.026-74.599 0-13.654 3.523-26.485 9.709-37.634l-0.202 0.397c3.438-6.583 50.907-55.15 198.29-202.825l193.755-194.121-193.755-194.121c-147.602-147.822-194.853-196.242-198.29-202.825-6.059-10.775-9.628-23.653-9.628-37.364 0-36.224 24.913-66.63 58.541-75.017l0.532-0.112c18.213-4.754 37.815-2.194 55.808 7.241 6.583 3.438 55.15 50.907 202.825 198.29l194.121 193.755 194.121-193.755c147.675-147.383 196.242-194.853 202.825-198.29 45.861-24.064 99.474-0.512 112.494 49.445 1.44 5.587 2.266 12.001 2.266 18.608 0 13.642-3.523 26.46-9.709 37.596l0.202-0.396c-3.438 6.583-50.907 55.15-198.29 202.825l-193.755 194.121 193.902 194.121c180.517 180.809 194.267 194.926 199.095 205.239 9.509 20.407 10.752 40.155 3.73 60.489-7.268 19.73-21.726 35.353-40.118 43.978l-0.476 0.2c-10.898 5.12-12.434 5.413-31.963 5.413-18.944 0-21.285-0.366-31.525-4.974-11.995-5.413 11.557 17.554-330.679-322.706l-72.119-71.607-194.121 193.829c-178.834 178.615-194.999 194.341-205.239 199.241-10.202 5.39-22.299 8.554-35.134 8.554-7.548 0-14.84-1.094-21.726-3.132l0.541 0.137z" />
<glyph unicode="&#xe909;" glyph-name="delete" d="M413.94 920.308c-13.424-2.303-25.439-6.205-36.617-11.572l0.825 0.357c-36.913-17.262-62.074-46.47-74.069-86.065-3.706-12.239-4.194-16.628-4.779-44.032l-0.731-30.427-179.541-0.878-8.485-4.047c-17.039-7.777-28.668-24.666-28.668-44.272 0-18.48 10.331-34.546 25.533-42.739l0.258-0.127c8.094-4.486 8.777-4.584 34.085-5.071l25.844-0.536 0.488-288.232c0.439-263.753 0.683-289.109 3.072-298.813 12.532-51.2 45.739-87.089 94.842-102.498l13.605-4.291h483.328l13.605 4.291c54.808 17.213 90.843 61.342 96.744 118.491 1.024 10.338 1.609 111.080 1.609 293.4v277.65l25.844 0.536c23.064 0.488 26.575 0.926 32.232 3.95 12.953 6.269 22.53 17.78 26.065 31.702l0.072 0.334c6.339 21.894-5.169 45.836-27.112 56.222l-8.485 4.047-179.541 0.878-0.731 30.427c-0.585 27.404-1.073 31.793-4.779 44.032-11.947 39.448-37.205 68.803-73.826 85.918-25.893 12.093-18.725 11.459-138.728 11.8-11.127 0.095-24.286 0.148-37.457 0.148-26.194 0-52.338-0.213-78.431-0.638l3.93 0.050zM623.177 820.882c8.257-3.584 14.848-9.718 18.916-17.394l0.101-0.209c2.926-5.413 3.413-9.216 3.852-30.525l0.585-24.283h-250.734l0.585 24.283c0.439 21.309 0.926 25.112 3.852 30.525 4.169 7.885 10.76 14.019 18.769 17.507l0.248 0.096c6.729 3.072 9.655 3.17 101.912 3.17s95.183-0.098 101.912-3.17zM776.046 368.226c0-201.63-0.488-284.77-1.707-289.158-2.292-8.29-15.458-21.455-23.747-23.747-8.582-2.389-449.877-2.438-458.411-0.049-7.509 2.097-19.115 12.629-22.821 20.724-2.682 5.9-2.828 18.481-2.828 290.67l-0.049 284.526h509.562v-282.965zM416.817 527.628c-11.483-4.884-20.634-13.405-26.195-24.092l-0.137-0.289-4.34-8.826v-284.087l4.047-8.485c7.777-17.039 24.666-28.668 44.272-28.668 18.48 0 34.546 10.331 42.739 25.533l0.127 0.258 4.584 8.241 0.39 141.995c0.488 160.134 1.17 150.43-11.557 164.571-8.22 10.011-20.574 16.366-34.415 16.433h-0.011c-1.383 0.168-2.985 0.264-4.609 0.264-5.364 0-10.484-1.046-15.166-2.945l0.27 0.097zM595.383 529.286c-13.117-3.998-25.356-14.287-31.256-26.185l-3.462-7.119v-288.768l4.535-8.241c6.089-11.388 16.342-19.878 28.676-23.515l0.337-0.085c18.334-5.559 35.352-0.975 48.713 13.117 14.385 15.214 13.458 3.803 13.458 164.669v141.263l-4.34 8.826c-8.197 16.326-24.802 27.339-43.981 27.355h-0.002c-4.503-0.027-8.878-0.505-13.104-1.391l0.426 0.075z" />
<glyph unicode="&#xe90a;" glyph-name="email-empty" horiz-adv-x="1899" d="M96.064 944.043c-32.256-6.379-64.107-31.637-79.573-63.104l-8.576-17.451-0.853-414.336c-0.917-451.52-1.643-431.637 16.576-460.48 11.136-17.664 35.008-37.12 54.4-44.373 17.237-6.443 18.325-6.464 875.435-5.653l858.176 0.811 16.725 8.811c22.293 11.755 40.619 30.656 50.837 52.437l8.384 17.877v848.064l-7.808 15.829c-15.616 31.616-46.656 54.933-82.133 61.653-20.672 3.925-1681.792 3.84-1701.589-0.085zM1801.643 873.6c4.8-3.136 11.499-10.261 14.891-15.829 5.995-9.835 6.165-18.475 6.165-327.211l0.021-317.12-19.797 14.912c-10.88 8.192-94.528 57.472-185.899 109.483-91.371 52.032-168.043 96.363-170.368 98.496-3.435 3.157 23.659 19.819 142.4 87.595 132.629 75.712 147.2 84.821 152.427 95.317 4.821 9.643 5.184 13.44 2.261 22.336-5.141 15.595-14.144 22.379-29.781 22.464-11.883 0.064-50.688-21.248-358.123-196.8-255.189-145.728-349.739-198.187-363.776-201.899-37.696-9.941-82.517-5.44-116.992 11.755-7.019 3.477-174.976 99.115-373.227 212.501-236.672 135.36-365.909 211.051-376.32 220.395-29.824 26.773-48.491 65.515-51.712 107.392-1.6 20.736-0.896 26.027 4.885 37.397 6.72 13.163 13.227 18.389 28.715 23.125 4.437 1.344 385.515 2.219 846.805 1.941 802.56-0.512 839.104-0.789 847.424-6.251zM481.003 424.747c225.344-128.875 377.429-213.973 391.232-218.901 48.853-17.472 99.627-17.621 150.336-0.448 15.125 5.141 80.64 40.747 187.051 101.696l163.755 93.781 190.656-108.864c170.965-97.643 192.811-110.997 211.563-129.472 31.296-30.784 47.147-67.477 47.104-109.035 0-22.528-7.061-36.48-22.784-45.056-9.963-5.44-47.829-5.696-852.16-5.696-822.912 0-841.963 0.149-851.733 6.037-28.267 17.131-30.507 59.989-5.845 112.021 19.947 42.112 29.547 49.237 187.84 139.648 124.779 71.253 140.843 81.323 144.747 90.603 5.867 14.059 2.539 28.203-8.875 37.824-18.133 15.253-20.651 14.229-157.184-63.765-117.184-66.944-153.835-89.045-175.211-105.685l-8.704-6.763v452.779l19.776-14.933c10.88-8.213 185.664-109.803 388.437-225.771z" />
<glyph unicode="&#xe90b;" glyph-name="email" d="M46.080 796.699c-22.42-4.689-38.912-22.42-42.954-46.080-1.246-9.682-2.156-21.356-2.519-33.167l-0.014-0.571c-2.479-63.272 10.078-99.705 51.469-148.857 8.893-10.563 33.307-29.211 185.883-142.228-8.751 4.349 51.531-40.47 112.009-85.038l73.173-51.477c12.935-8.677 30.504-15.737 47.859-19.294 32.93-6.629 71.949 2.102 99.921 22.42 49.853 36.271 271.091 200.488 274.971 204.207 2.964 2.749 7.545 9 10.24 13.851 4.365 7.869 4.904 10.456 4.904 24.145 0 17.947-3.503 27.001-14.713 38.211-11.21 11.264-20.264 14.713-38.211 14.713-13.959 0-16.168-0.485-24.307-5.12-4.904-2.803-68.5-49.26-141.366-103.262-72.812-53.949-135.222-99.49-138.671-101.16-9.108-4.365-15.899-2.695-29.912 7.491-6.683 4.904-85.423 63.057-174.888 129.24-172.409 127.515-173.272 128.162-183.781 149.612-2.343 4.814-4.178 10.401-5.224 16.262l-0.058 0.391-1.132 8.084h778.725v-476.16h-776.408l-0.485 101.16-0.539 101.107-4.042 9c-5.12 11.264-19.348 24.63-30.289 28.349-6.072 1.729-13.047 2.731-20.255 2.749h-0.010c-0.131 0.001-0.287 0.002-0.442 0.002-20.275 0-37.826-11.662-46.311-28.644l-0.135-0.299c-6.521-12.773-7.168-26.085-6.467-132.743 0.808-114.203 0.377-109.999 13.528-137 8.677-17.731 26.139-36.163 40.691-42.9 20.857-9.701-6.413-9.162 443.715-9.162 398.552 0 416.013 0.162 425.768 3.18 25.923 7.976 45.272 24.684 56.967 49.206 13.096 27.432 12.234 6.575 12.234 294.373 0 250.934-0.108 258.102-3.395 270.875-8.785 34.331-32.175 61.44-61.925 71.626l-10.617 3.665-433.529 0.269c-238.43 0.108-436.17-0.323-439.458-1.024z" />
<glyph unicode="&#xe90c;" glyph-name="forward" d="M615.232 884.48c-1.483-0.472-3.61-1.024-5.766-1.496l-0.57-0.104c-6.272-1.344-16.64-10.688-19.52-17.536-1.792-4.416-2.304-24.832-2.304-101.952 0-53.12-0.256-96.512-0.576-96.512-3.52 0-48.448-10.048-68.544-15.296-219.456-57.664-380.48-203.136-467.584-422.464-21.312-53.76-50.368-156.288-50.368-177.792 0-18.304 21.312-34.368 39.168-29.568 9.28 2.496 15.36 8 30.016 27.392 37.312 49.28 83.776 95.36 128.256 127.232 67.136 48.064 145.152 81.088 233.472 98.88 44.864 9.024 107.52 16.128 142.016 16.128h14.144v-96.448c0-91.328 0.192-96.832 3.264-102.848 3.082-6.915 8.751-12.209 15.746-14.724l0.19-0.060c3.635-1.564 7.866-2.473 12.31-2.473 4.994 0 9.72 1.149 13.928 3.196l-0.189-0.083c4.736 2.176 65.792 62.208 197.44 194.112 208 208.384 196.16 195.264 193.536 212.864-1.164 6.184-3.899 11.593-7.774 15.971l0.030-0.035c-11.2 13.888-376.128 377.152-381.504 379.776-5.44 2.688-15.936 4.8-18.816 3.84z" />
<glyph unicode="&#xe90d;" glyph-name="inbox" d="M265.165 880.691c-16.742-3.072-23.040-5.274-39.936-13.926-18.074-9.216-31.795-20.122-44.851-35.635-8.806-10.445-20.48-32.768-94.771-180.89l-84.736-168.96v-312.32l4.71-15.053c5.427-17.306 9.165-25.242 18.688-39.578 19.2-28.774 49.306-49.766 84.941-59.29l14.541-3.84h766.259l14.899 3.789c26.832 6.309 49.896 19.774 67.805 38.261l0.035 0.036c19.61 19.661 32.051 42.445 38.758 71.066 2.867 12.134 3.123 24.371 3.123 163.686v150.579l-83.354 166.758c-45.824 91.699-86.272 171.008-89.856 176.282-10.863 14.167-23.24 26.398-37.089 36.768l-0.491 0.352c-11.619 7.878-25.054 14.305-39.417 18.578l-1.031 0.263-15.002 4.71-235.52 0.307c-187.802 0.256-238.029-0.154-247.706-1.946zM741.786 777.011c2.97-1.638 7.782-5.376 10.752-8.294 3.584-3.584 26.163-46.95 66.765-128.051l61.389-122.675-99.43-0.051c-62.413 0-101.786-0.614-105.728-1.741-5.529-1.93-10.318-4.371-14.706-7.358l0.216 0.139c-7.066-4.762-13.978-14.080-49.050-66.509l-40.858-61.030h-127.386l-39.066 58.573c-26.522 39.782-41.677 60.826-47.206 65.69-14.080 12.39-12.646 12.288-123.955 12.288-54.272 0-98.714 0.358-98.714 0.819 0 2.97 121.754 243.61 125.491 248.064 5.114 5.749 11.745 10.044 19.265 12.265l0.293 0.074c2.355 0.717 106.035 1.178 230.451 1.024 210.33-0.256 226.509-0.512 231.475-3.226zM336.998 356.557c21.504-32.41 41.984-61.491 45.414-64.614s10.598-7.27 15.923-9.267c9.472-3.533 11.981-3.635 108.186-3.635 65.434 0 100.762 0.666 105.318 1.894 3.738 0.973 10.547 4.198 15.053 7.066 7.219 4.557 13.107 12.544 49.101 66.406l40.858 61.184h194.509v-116.070c0-114.79-0.051-116.173-3.635-123.802-2.561-5-5.834-9.253-9.744-12.82l-0.035-0.032c-13.107-10.854 13.005-10.189-394.547-9.728l-371.149 0.461-7.066 3.789c-8.909 4.762-18.227 15.565-20.787 24.115-1.434 4.762-1.997 38.963-1.997 120.371v113.715l195.43-0.102 39.168-58.931z" />
<glyph unicode="&#xe90e;" glyph-name="invite-sent" d="M491.365 953.153c-5.882-1.095-14.812-3.536-19.861-5.43-8.442-3.179-348.446-196.465-367.473-208.908-18.396-12.026-33.756-30.601-41.877-50.652-8.859-21.897-8.573-13.776-8.573-239.306s-0.262-218.1 8.525-239.723c7.537-18.563 23.79-38.579 40.377-49.735 15.003-10.109 357.65-205.252 367.021-209.039 15.134-6.108 29.244-8.406 47.080-7.656 28.791 1.203 23.635-1.393 219.279 110.449 96.649 55.248 179.486 102.924 184.094 105.96 16.741 11.050 29.946 26.803 38.983 46.521 10.454 22.826 9.954 10.514 9.954 241.7 0 226.745 0.476 214.087-8.275 219.815-2.143 1.405-6.906 2.524-10.752 2.524-5.465 0-7.942-0.929-11.895-4.465l-4.989-4.453-0.762-212.147-0.774-212.147-3.37-8.93c-4.594-12.342-11.777-22.792-20.939-31.102l-0.065-0.058c-9.371-8.478-357.769-208.289-371.974-213.337-12.109-4.298-35.721-4.191-47.878 0.214-4.81 1.75-89.040 49.092-187.19 105.21-198.013 113.223-190.143 108.115-201.133 130.429-4.31 8.74-6.001 14.55-7.132 24.457-2.084 18.146-2.012 394.192 0.071 410.791 2.846 22.671 13.514 40.496 31.506 52.617 17.468 11.776 357.84 205.681 364.687 207.753 3.644 1.107 14.276 1.953 24.731 1.953 17.337 0 18.884-0.262 28.267-4.727 5.465-2.596 60.797-33.804 122.951-69.334 62.166-35.542 114.914-65.286 117.236-66.084 2.858-1 5.942-0.905 9.561 0.286 12.752 4.215 17.479 19.658 8.883 28.993-5.727 6.215-237.663 138.526-250.904 143.122-10.992 4.027-23.684 6.356-36.92 6.356-7.24 0-14.316-0.697-21.167-2.027l0.696 0.112zM939.032 816.259c-3.263-0.941-80.134-76.086-258.012-252.178l-253.357-250.832-10.919 10.502c-24.094 23.574-45.578 44.733-66.995 65.96l1.054-1.043c-30.256 29.922-56.677 55.272-58.689 56.332-5.525 2.905-14.824 2.215-19.992-1.465-5.918-4.215-8.68-12.967-6.323-20.075 1.238-3.739 22.266-25.421 76.359-78.753 80.586-79.455 80.86-79.681 91.457-75.145 4.656 1.988 524.764 515.453 527.717 520.99 0.798 1.476 1.441 5.394 1.441 8.692 0 7.216-4.441 13.526-11.669 16.539-5.632 2.358-5.62 2.358-12.074 0.476z" />
<glyph unicode="&#xe90f;" glyph-name="mark-as-read" d="M675.2 4.267l-183.467 184.533 67.2 67.2 116.267-115.2 250.667 249.6 67.2-67.2-317.867-318.933zM509.867 509.867l346.667 205.867h-693.333l346.667-205.867zM509.867 421.333l-350.933 210.133v-438.4h236.8l100.267-100.267h-337.067q-41.653 0-70.96 29.307t-29.307 70.96v522.667q0 42.094 29.307 71.713t70.96 29.62h702.933q42.094 0 71.713-29.62 29.62-29.619 29.62-71.713v-196.267l-101.333-100.267v212.267l-352-210.133z" />
<glyph unicode="&#xe910;" glyph-name="mark-as-unread" d="M158.933 80q-41.653 0-70.96 29.307t-29.307 70.96v535.467q0 42.094 29.307 71.713t70.96 29.62h442.667q-9.6-25.6-11.733-50.667t2.133-50.667h-427.733l347.733-232.533 149.333 100.267q14.933-13.867 33.067-24.185t37.333-16.349l-219.733-148.267-353.067 237.867v-452.267h706.133v354.133q28.58 6.169 54.337 20.116t46.996 34.284v-408.533q0-41.653-29.62-70.96t-71.713-29.307h-706.133zM158.933 715.733v0zM810.541 611.2q-56.496 0-95.919 39.548t-39.422 96.045 39.548 95.919 96.045 39.422q56.496 0 95.919-39.548t39.422-96.045q0-56.496-39.548-95.919t-96.045-39.422z" />
<glyph unicode="&#xe911;" glyph-name="menu" d="M109.867 162.133v100.267h804.267v-100.267h-804.267zM109.867 397.867v100.267h804.267v-100.267h-804.267zM109.867 633.6v101.333h804.267v-101.333h-804.267z" />
<glyph unicode="&#xe912;" glyph-name="pencil" d="M664.43 958.44c-36.23-4.73-70.168-21.699-106.252-53.199-10.679-9.314-360.058-378.197-373.029-393.85-14.141-17.067-27.209-43.691-33.012-67.34-3.462-14.238-19.017-150.528-19.017-166.717 0-44.178 22.869-82.7 60.27-101.571 16.286-8.192 32.183-11.898 51.639-11.898 15.506-0.049 26.136 1.463 91.282 12.678 40.57 7.022 79.092 14.385 85.577 16.433 17.067 5.315 41.496 18.481 55.052 29.598 9.070 7.461 170.033 176.469 307.151 322.56l38.571 41.009c38.717 41.204 54.418 62.659 66.901 91.526 8.985 19.364 14.227 42.031 14.227 65.922 0 24.139-5.351 47.028-14.931 67.547l0.412-0.982c-12.288 28.087-38.132 61.83-67.34 87.869-52.858 47.202-105.082 67.194-157.501 60.416zM700.709 859.843c20.041-5.315 44.715-22.138 68.12-46.421 30.574-31.744 41.691-57.588 35.791-83.285-4.73-20.675-17.749-39.448-54.37-78.507-28.623-30.574-23.601-28.379-47.104-20.626-31.143 10.378-57.782 27.049-79.545 48.629l0.014-0.014c-23.004 22.226-40.915 49.571-51.911 80.21l-0.459 1.466-4.242 12.629 9.606 10.776c19.505 21.65 50.469 52.078 59.831 58.709 11.313 7.948 25.307 15.116 33.109 16.969 8.631 2.048 22.284 1.804 31.159-0.536zM502.248 677.961c30.577-53.049 74.961-95.13 128.295-122.077l1.753-0.803c9.411-4.584 17.115-8.728 17.164-9.265 0.098-2.243-232.594-246.784-238.787-250.929-4.193-2.754-9.008-5.275-14.071-7.311l-0.558-0.198c-7.363-2.779-142.434-26.624-150.577-26.624-5.754 0-10.874 2.731-12.727 6.827-2.633 5.803-1.95 15.458 5.705 83.822 7.607 67.779 9.557 78.019 17.262 91.038 6.095 10.338 236.251 253.464 237.666 251.075l8.875-15.555zM124.148 72.972c-17.775-6.359-30.692-22.081-32.893-41.070l-0.022-0.231c-1.902-15.994 6.583-34.621 20.187-44.471 13.019-9.411-17.359-8.777 408.088-8.777 387.17 0 387.365 0 395.362 3.023 10.679 3.95 21.65 14.043 26.77 24.478 5.413 11.069 5.803 29.403 0.926 40.034-5.297 10.285-13.193 18.588-22.835 24.23l-0.279 0.151-7.363 3.901-391.314 0.293c-317.489 0.244-392.29-0.049-396.629-1.56z" />
<glyph unicode="&#xe913;" glyph-name="reply-all" d="M285.882 763.904c-2.839-1.257-67.863-65.164-144.524-142.010-151.273-151.552-144.477-143.872-139.823-157.929 1.35-4.096 41.146-44.87 142.243-145.827 112.268-112.035 141.452-140.335 145.734-141.126 14.15-2.607 26.857 7.587 28.765 23.087 0.605 4.98 0.884 34.397 0.559 65.35-0.419 43.287-1.071 57.344-2.839 60.602-1.303 2.327-33.932 35.933-72.518 74.659l-70.191 70.377 71.075 71.261c49.245 49.338 71.54 72.844 72.518 76.381 0.791 2.839 1.396 33.187 1.396 67.444 0 70.889 0.047 70.842-13.312 76.893-8.425 3.817-12.195 4.003-19.084 0.838zM557.242 763.904c-2.839-1.257-67.863-65.164-144.524-142.010-151.226-151.505-144.477-143.872-139.823-157.929 2.653-8.006 276.527-281.74 285.696-285.51 12.381-5.12 27.043 3.212 30.301 17.268 0.838 3.631 1.536 36.352 1.583 72.751l0.047 66.095h10.659c13.731 0 44.777-2.793 68.701-6.144 127.395-17.92 223.604-73.588 297.612-172.172 11.683-15.546 16.524-18.618 27.741-17.548 6.656 0.652 9.775 2.001 13.777 6.051 7.354 7.354 7.913 16.71 2.374 41.053-25.274 111.104-73.588 205.824-142.196 278.621-14.010 14.848-44.125 40.96-62.79 54.458-54.598 39.424-125.161 69.865-195.398 84.294l-19.642 4.003-0.838 70.656c-0.977 80.058-0.838 79.127-14.196 85.225-8.425 3.817-12.195 4.003-19.084 0.838z" />
<glyph unicode="&#xe914;" glyph-name="reply" d="M398.016 883.648c-4.536-1.42-8.485-3.38-12.048-5.855l0.144 0.095c-3.52-2.432-91.008-89.088-194.368-192.64-162.816-162.944-188.288-189.12-189.888-195.008-1.103-3.053-1.741-6.577-1.741-10.249 0-4.958 1.163-9.645 3.23-13.803l-0.081 0.18c4.608-9.728 380.8-385.472 389.632-389.056 3.664-1.592 7.932-2.518 12.416-2.518s8.752 0.926 12.623 2.597l-0.207-0.079c7.185 2.575 12.854 7.869 15.867 14.611l0.069 0.173c3.072 6.016 3.264 11.52 3.264 102.848v96.448h14.144c7.808 0 24.512-0.768 37.12-1.792 206.848-16.256 354.432-92.288 466.624-240.448 14.656-19.392 20.736-24.896 30.016-27.392 13.376-3.648 29.888 4.544 35.904 17.728 4.224 9.28 4.096 13.952-1.024 37.056-54.784 248.064-182.72 426.816-373.952 522.624-53.752 27.207-116.138 49.127-181.613 62.585l-4.883 0.839c-1.512 0.53-8.87 2.022-16.261 3.422l-5.499 0.866c-0.32 0-0.576 43.328-0.576 96.32 0 63.872-0.64 97.92-1.856 101.12-5.223 11.864-16.877 19.997-30.43 19.997-2.345 0-4.634-0.244-6.842-0.707l0.216 0.038z" />
<glyph unicode="&#xe915;" glyph-name="restore" d="M512 401.067l-353.067 231.467v-452.267h410.667v-100.267h-410.667q-41.653 0-70.96 29.307t-29.307 70.96v535.467q0 42.094 29.307 71.713t70.96 29.62h706.133q42.094 0 71.713-29.62 29.62-29.619 29.62-71.713v-348.8h-101.333v265.6l-353.067-231.467zM512 488.533l353.067 227.2h-706.133l353.067-227.2zM837.333-46.933l-54.4 55.467 69.333 71.467h-218.667v80h218.667l-70.4 70.4 55.467 56.533 167.467-167.467-167.467-166.4zM158.933 632.533v-0z" />
<glyph unicode="&#xe916;" glyph-name="retract" d="M512 395.733l-353.067 231.467v-446.933h402.133q0-28.8 4.8-53.333t15.467-46.933h-422.4q-41.653 0-70.96 29.84t-29.307 70.427v535.467q0 41.027 29.307 71.18t70.96 30.154h706.133q41.027 0 71.18-30.154 30.154-30.153 30.154-71.18v-316.8q-19.2 13.867-46.4 24t-54.933 15.744v188.523l-353.067-231.467zM512 488.533l353.067 227.2h-706.133l353.067-227.2zM824.533-21.333q-82.779 0-141.122 57.6-58.345 57.6-58.345 140.815t58.345 141.867q58.343 58.652 141.122 58.652t141.122-58.652q58.345-58.652 58.345-141.867t-58.345-140.815q-58.343-57.6-141.122-57.6zM704 153.6h241.067v55.467h-241.067v-55.467zM158.933 180.267v0z" />
<glyph unicode="&#xe917;" glyph-name="search" d="M661.486 258.976c-8.361-21.57-3.831-46.984 13.577-64.392l215.992-215.992c23.522-23.522 61.663-23.522 85.185 0s23.522 61.663 0 85.185l-215.992 215.992c-15.715 15.715-37.954 20.932-58.001 15.649 68.65 70.531 110.929 166.854 110.929 273.053 0 216.236-175.291 391.529-391.529 391.529-216.236 0-391.529-175.294-391.529-391.529 0-216.239 175.294-391.529 391.529-391.529 90.365 0 173.581 30.612 239.839 82.034zM692.706 568.471c0-149.702-121.357-271.059-271.059-271.059s-271.059 121.357-271.059 271.059c0 149.702 121.357 271.059 271.059 271.059s271.059-121.357 271.059-271.059z" />
<glyph unicode="&#xe918;" glyph-name="sent" d="M949.102 921.088c-6.778-0.683-874.301-304.030-885.516-309.638-22.284-11.118-31.646-40.18-20.382-63.195 2.682-5.413 7.753-12.337 11.313-15.36 4.437-3.803 66.219-32.134 196.364-90.063l189.83-84.553 84.066-189.001c49.054-110.348 86.162-191.683 89.137-195.389 23.016-28.574 67.438-22.138 82.31 11.947 5.364 12.288 305.25 870.4 307.2 878.933 3.365 15.165-3.365 34.572-15.653 44.958-8.835 7.285-20.27 11.703-32.737 11.703-2.090 0-4.151-0.124-6.176-0.366l0.245 0.024zM617.911 604.282c-114.834-114.834-151.552-150.626-153.6-149.602-1.463 0.683-56.954 25.405-123.368 54.808-66.365 29.452-120.296 53.931-119.857 54.37 1.073 1.073 543.793 191.147 546.036 191.244 0.975 0.049-66.17-67.828-149.211-150.821zM742.4 411.38c-163.807-512.588-196.412-603.221-229.228-693.753l133.167 420.442c-0.293-0.341-25.21 54.906-55.345 122.685l-54.857 123.221 150.43 150.577c49.839 50.18 98.995 99.089 148.439 147.706l2.43 2.383c0.244-0.244-42.52-123.221-95.037-273.262z" />
<glyph unicode="&#xe919;" glyph-name="triangle-down" d="M118.656 766.080c-47.36-6.912-89.216-40.064-108.16-85.632-18.432-44.288-12.288-93.44 16.512-133.376 7.936-10.88 387.072-381.44 400.256-391.296 13.056-9.472 30.72-18.048 48-22.912 11.52-3.328 17.536-3.968 37.632-3.84 2.017-0.136 4.373-0.213 6.746-0.213 11.487 0 22.551 1.81 32.923 5.16l-0.757-0.211c31.36 9.472 44.032 18.304 88.192 61.696l188.16 184.064c58.394 56.897 110.436 108.008 162.287 159.312l-2.543-2.512c22.228 24.265 35.848 56.733 35.848 92.382 0 37.99-15.468 72.367-40.449 97.178l-0.008 0.008c-13.678 12.906-29.641 23.579-47.186 31.323l-1.070 0.421c-27.392 10.88-4.352 10.368-424.576 10.112-209.92-0.128-386.176-0.768-391.808-1.664z" />
<glyph unicode="&#xe91a;" glyph-name="warning" d="M512 661.333c23.467 0 42.667-19.2 42.667-42.667v-170.667c0-23.467-19.2-42.667-42.667-42.667s-42.667 19.2-42.667 42.667v170.667c0 23.467 19.2 42.667 42.667 42.667zM511.573 874.667c-235.52 0-426.24-191.147-426.24-426.667s190.72-426.667 426.24-426.667c235.947 0 427.093 191.147 427.093 426.667s-191.147 426.667-427.093 426.667zM512 106.667c-188.587 0-341.333 152.747-341.333 341.333s152.747 341.333 341.333 341.333 341.333-152.747 341.333-341.333-152.747-341.333-341.333-341.333zM512 234.667c23.564 0 42.667 19.103 42.667 42.667s-19.103 42.667-42.667 42.667v0c-23.564 0-42.667-19.103-42.667-42.667s19.103-42.667 42.667-42.667v0z" />
</font>
</defs>
</svg>
